#TITLE:Ending;
#SUBTITLE:~Magna Trick original~;
#ARTIST:DH Yoshitaka;
#TITLETRANSLIT:;
#SUBTITLETRANSLIT:;
#ARTISTTRANSLIT:;
#CREDIT:Magna Trick;
#BANNER:Ending-BN.png;
#BACKGROUND:Ending-BG.png;
#LYRICSPATH:;
#CDTITLE:Magna Trick title!.png;
#MUSIC:15.Ending ^ DH Yoshitaka.mp3;
#OFFSET:-0.420;
#SAMPLESTART:36.116;
#SAMPLELENGTH:11.980;
#SELECTABLE:YES;
#BPMS:0.000=155.000;
#STOPS:163.500=0.060
,163.625=0.040
,165.500=0.060
,167.500=0.060
,168.500=0.060
,169.250=0.100
,170.000=0.060
,170.125=0.060
,170.250=0.080
,170.375=0.040
,170.500=1.200
;
#BGCHANGES:;
// cache tags:
#FIRSTBEAT:0.000;
#LASTBEAT:171.000;
#SONGFILENAME:Songs/Chilean Keyboard Megapack 3/(Magna Trick) Ending/Ending.sm;
#HASMUSIC:1;
#HASBANNER:1;
#MUSICLENGTH:74.665;
// end cache tags

//---------------dance-single - ----------------
#NOTES:
     dance-single:
     :
     Challenge:
     12:
     1.000,1.000,0.884,0.121,1.000,693.000,66.000,9.000,0.000,2.000:
1001
0000
0000
0000
0001
1000
0100
1000
0001
0010
0100
0010
0001
1000
0010
0100
,
0001
1000
0100
1000
0001
0100
0001
0010
0100
0010
0001
1000
0010
0100
0001
1000
,
0100
1000
0001
0000
1000
0001
1000
0000
0001
1000
0001
0000
0010
0001
0010
0000
,
0001
0000
0010
0000
0001
0000
0000
0000
0010
0000
0100
0000
0010
0000
0000
0000
0100
0000
0010
0000
0100
0000
0000
0000
1000
0000
0001
0000
1000
0100
0010
0100
,
1001
0010
0100
1000
0100
0010
0001
1000
0001
0100
1000
0001
1000
0100
0001
0000
,
0001
1000
0001
0000
0001
1000
0011
0000
0001
1000
0001
0000
0001
1000
0001
0000
,
0001
1000
0001
0000
0001
1000
0001
0000
0001
1000
0001
0000
0001
1000
0001
0000
,
0001
0010
0100
1000
0100
0010
0001
0100
0010
1000
0010
0100
0001
1000
0100
0010
0001
1000
0010
0001
1000
0100
0001
0100
,
0011
1000
0100
1000
0001
0100
0001
0010
0100
0010
0001
1000
0010
0100
2001
0010
,
3100
0001
1000
0100
0010
0001
0010
0100
1000
0010
0100
0001
1000
0100
0011
1000
,
0110
0001
1000
0100
1000
0001
0100
0010
0001
1000
0100
0001
1000
0010
1100
0001
,
1010
0100
1000
0011
1000
0001
0110
0001
1100
0010
0100
0011
1000
0100
1001
0000
,
1001
0100
0010
0100
0010
0001
1000
0010
0100
0001
1000
0100
1000
0001
2010
0100
,
3010
0001
1000
0010
0100
0001
1000
0100
1000
0001
0100
0010
1000
0001
0110
1000
,
0101
0010
1000
0100
1000
0001
0100
0001
0010
0100
0010
0001
1000
0010
0001
1000
,
0100
0000
0000
0010
0000
0000
0001
0000
0000
0100
0000
0000
0001
0000
0010
0000
0100
0000
1000
0000
0100
0000
0010
0000
1001
0000
0000
0000
0000
0000
0000
0000
0000
1100
0000
0000
0000
0000
0000
0000
0000
0000
0101
0000
0000
0000
0000
0000
,
0010
1000
0100
1000
0001
0100
0001
0010
0100
0010
0001
1000
0010
0100
1002
0100
,
0013
1000
0100
1000
0001
0100
0001
0010
0100
0010
0001
1000
0010
0100
0011
0100
,
1001
0010
0001
1000
0100
0001
0010
1000
0001
0100
1000
0010
0100
0001
1000
0100
,
1001
0010
0100
1001
0010
1000
0011
0100
1001
0010
0100
0011
1000
0100
1001
0000
,
1001
0010
0100
0001
1000
0100
0010
0001
0010
0100
1000
0010
0100
0001
2010
0100
,
3010
0001
0010
0100
1000
0001
0100
0010
1000
0001
0010
0100
0010
0001
1100
0010
,
1001
0010
0100
0001
1000
0100
0010
0001
0010
1000
0001
0100
1000
0010
0100
0001
,
1010
0000
0100
0000
0001
0000
0110
0000
0001
0000
1000
0010
0100
0010
1000
0001
0110
0000
0000
0000
0000
0000
1001
0000
0000
0000
0000
0000
1100
0000
0000
0000
,
0001
0010
0001
1000
0010
0001
1000
0010
0001
1000
0010
0001
1000
0100
0010
0100
,
1000
0010
0001
1000
0010
0001
1000
0100
0001
1000
0010
0001
1000
0100
1001
0010
,
1001
0100
0001
0100
1000
0010
0001
1000
0010
0001
1000
0010
0001
1000
0100
0010
,
0100
0000
0010
0000
0001
0000
0100
0000
0010
0000
0001
0000
0100
0000
0010
0000
0001
0000
0100
0000
0010
0000
1000
0000
0100
0000
0010
0000
1000
0001
1000
0001
,
1000
0100
0001
0010
1000
0001
0100
1000
0001
0010
0100
0001
1000
0010
0200
0000
,
1301
0010
1000
0100
0001
1000
0010
0001
1000
0100
0010
1000
0001
0100
0020
0000
,
1031
0100
0010
1000
0100
0010
0001
0100
1001
0010
0100
1000
0001
0010
0100
1000
,
0001
0000
0000
0000
0000
0000
0010
0000
0000
0000
0000
0000
0100
0000
0000
0000
0000
0000
1000
0000
0000
0000
0000
0000
0001
0000
0000
0000
0000
0000
0010
0000
0000
0000
0000
0000
0100
0000
0000
0000
0000
0000
1000
0000
0000
0000
0000
0000
0001
0000
0000
0000
0000
0000
0010
0000
0000
0000
0000
0000
0100
0000
0000
0000
0000
0000
1000
0000
0000
0000
0000
0000
0001
0000
0000
0000
0000
0000
0010
0000
0000
0000
0000
0000
0100
0000
0000
0000
0000
0000
1000
0000
0000
0000
0000
0000
0001
0000
0000
0000
0010
0000
0000
0000
0100
0000
0000
0000
1000
0000
0000
0000
0001
0000
0000
0000
0010
0000
0000
0000
0100
0000
0000
0000
1000
0000
0000
0000
0001
0000
0000
0000
0010
0000
0000
0000
0100
0000
0000
0000
1000
0000
0000
0000
0001
0000
0000
0010
0000
0000
0100
0000
0000
1000
0000
0000
0001
0000
0000
0010
0000
0000
0100
0000
0000
1000
0000
0000
0001
0000
0000
0010
0000
0000
0100
0000
0000
1000
0000
0000
0001
0000
0000
0010
0000
0000
0100
0000
0000
1000
0000
0000
,
1001
0010
0100
0001
1000
0100
0010
0001
0010
0100
1000
0010
0100
0001
2010
0100
,
3010
1000
0001
0010
0100
1000
0100
0010
0001
0100
0010
1000
0001
0010
1100
0001
,
0110
1000
0001
0010
0001
1000
0010
0100
1000
0001
0010
1000
0001
0100
0011
1000
,
0101
0000
0010
0000
0001
0000
1100
0000
0001
0010
0100
1000
0001
0000
0010
0000
1001
0000
0100
0000
0010
0000
1100
0000
0001
0000
0010
0000
1001
0000
0000
0000
,
1001
0010
0100
0010
0100
1000
0001
0100
0010
1000
0001
0010
0001
1000
0102
0010
,
0103
1000
0001
0100
0010
1000
0001
0010
0001
1000
0010
0100
0001
1000
0110
0001
,
1010
0100
0001
0010
0001
1000
0010
1000
0100
0010
0100
1000
0001
0100
1000
0001
,
0010
0000
0000
0100
0000
0000
1000
0000
0000
0010
0000
0000
1000
0000
0100
0000
0010
0000
0001
0000
0010
0000
0100
0000
1001
0000
0000
0000
0000
0000
0000
0000
0000
0011
0000
0000
0000
0000
0000
0000
0000
0000
1010
0000
0000
0000
0000
0000
,
0100
0000
0001
0000
0010
0000
0001
0000
1000
0000
0010
0000
1000
0000
0100
0000
0010
0000
0100
0000
1000
0000
0001
0000
0100
0000
0010
0000
1000
0001
1000
0000
,
0100
0010
0001
0010
0100
1000
0011
0100
1000
0100
1000
0001
0010
0100
1001
0100
,
0010
0000
0100
0000
1001
0000
0000
0000
0000
0000
0011
0000
1100
0000
0000
0000
0001
1000
0001
1000
0020
0000
0000
0000
0030
0000
0000
0000
0000
0000
0000
0000
;
